Happier Than Ever A Love Letter to Los Angeles 2021 HDR 2160p WEB h265-KOGi [RiCK]


0

0
seeders: 4 leechers: 1 updated: 11 months ago
Added 11 months ago in Music - MP3
Downloaded 2 times.
Happier Than Ever A Love Letter to Los Angeles 2021 HDR 2160p WEB h265-KOGi [RiCK]

Torrent Contents

Happier Than Ever A Love Letter to Los Angeles 2021 HDR 2160p WEB h265-KOGi [RiCK] (Size: 7.8 GB)
Happier.Than.Ever.A.Love.Letter.to.Los.Angeles.2021.HDR.2160p.WEB.h265-KOGi.mkv 7.8 GB
Request High Bitrate Stuff in Here OR Send Feedback.txt 2.2 KB

Description

Grammy Award-winning and chart-topping artist Billie Eilish will make her Disney+ debut with "Happier than Ever: A Love Letter to Los Angeles," a cinematic concert experience.

Happier.Than.Ever.A.Love.Letter.to.Los.Angeles.2021.HDR.2160p.WEB.h265-KOGi.mkv
Format : Matroska
Format version : Version 4
File size : 7.79 GiB
Duration : 1 h 5 min
Overall bit rate : 17.0 Mb/s
Writing application : mkvmerge v59.0.0 ('Shining Star') 64-bit
Writing library : libebml v1.4.2 + libmatroska v1.6.4

Video
ID : 1
Format : HEVC
Format/Info : High Efficiency Video Coding
Format profile : Main [email protected]@High
HDR format : SMPTE ST 2086, HDR10 compatible
Codec ID : V_MPEGH/ISO/HEVC
Duration : 1 h 5 min
Bit rate : 16.2 Mb/s
Width : 3 840 pixels
Height : 2 160 pixels
Display aspect ratio : 16:9
Frame rate mode : Constant
Frame rate : 24.000 FPS
Color space : YUV
Chroma subsampling : 4:2:0
Bit depth : 10 bits
Bits/(Pixel*Frame) : 0.081
Stream size : 7.43 GiB (95%)
Language : English
Default : Yes
Forced : No
Color range : Limited
Color primaries : BT.2020
Transfer characteristics : PQ
Matrix coefficients : BT.2020 non-constant
Mastering display color primaries : BT.2020
Mastering display luminance : min: 0.0001 cd/m2, max: 1000 cd/m2

Audio
ID : 2
Format : E-AC-3 JOC
Format/Info : Enhanced AC-3 with Joint Object Coding
Commercial name : Dolby Digital Plus with Dolby Atmos
Codec ID : A_EAC3
Duration : 1 h 5 min
Bit rate mode : Constant
Bit rate : 768 kb/s
Channel(s) : 6 channels
Channel layout : L R C LFE Ls Rs
Sampling rate : 48.0 kHz
Frame rate : 31.250 FPS (1536 SPF)
Compression mode : Lossy
Stream size : 361 MiB (5%)
Language : English
Service kind : Complete Main
Default : Yes
Forced : No
Complexity index : 16
Number of dynamic objects : 15
Bed channel count : 1 channel
Bed channel configuration : LFE

Text #1
ID : 3
Format : UTF-8
Codec ID : S_TEXT/UTF8
Codec ID/Info : UTF-8 Plain Text
Duration : 1 h 5 min
Bit rate : 71 b/s
Count of elements : 836
Stream size : 34.1 KiB (0%)
Title : English (SDH)
Language : English
Default : No
Forced : No

Text #2
ID : 4
Format : UTF-8
Codec ID : S_TEXT/UTF8
Codec ID/Info : UTF-8 Plain Text
Duration : 1 h 5 min
Bit rate : 4 b/s
Count of elements : 50
Stream size : 2.07 KiB (0%)
Title : Dansk
Language : Danish
Default : No
Forced : No

Text #3
ID : 5
Format : UTF-8
Codec ID : S_TEXT/UTF8
Codec ID/Info : UTF-8 Plain Text
Duration : 1 h 5 min
Bit rate : 4 b/s
Count of elements : 47
Stream size : 2.02 KiB (0%)
Title : Deutsch
Language : German
Default : No
Forced : No

Text #4
ID : 6
Format : UTF-8
Codec ID : S_TEXT/UTF8
Codec ID/Info : UTF-8 Plain Text
Duration : 1 h 5 min
Bit rate : 54 b/s
Count of elements : 756
Stream size : 26.2 KiB (0%)
Title : Español
Language : Spanish
Default : No
Forced : No

Text #5
ID : 7
Format : UTF-8
Codec ID : S_TEXT/UTF8
Codec ID/Info : UTF-8 Plain Text
Duration : 1 h 5 min
Bit rate : 54 b/s
Count of elements : 744
Stream size : 26.2 KiB (0%)
Title : Español (Latinoamericano)
Language : Spanish
Default : No
Forced : No

Text #6
ID : 8
Format : UTF-8
Codec ID : S_TEXT/UTF8
Codec ID/Info : UTF-8 Plain Text
Duration : 1 h 5 min
Bit rate : 4 b/s
Count of elements : 50
Stream size : 1.94 KiB (0%)
Title : Suomi
Language : Finnish
Default : No
Forced : No

Text #7
ID : 9
Format : UTF-8
Codec ID : S_TEXT/UTF8
Codec ID/Info : UTF-8 Plain Text
Duration : 1 h 5 min
Bit rate : 4 b/s
Count of elements : 60
Stream size : 2.21 KiB (0%)
Title : Français
Language : French
Default : No
Forced : No

Text #8
ID : 10
Format : UTF-8
Codec ID : S_TEXT/UTF8
Codec ID/Info : UTF-8 Plain Text
Duration : 1 h 5 min
Bit rate : 4 b/s
Count of elements : 48
Stream size : 2.09 KiB (0%)
Title : Italiano
Language : Italian
Default : No
Forced : No

Text #9
ID : 11
Format : UTF-8
Codec ID : S_TEXT/UTF8
Codec ID/Info : UTF-8 Plain Text
Duration : 1 h 5 min
Bit rate : 56 b/s
Count of elements : 666
Stream size : 27.1 KiB (0%)
Title : Japanese
Language : Japanese
Default : No
Forced : No

Text #10
ID : 12
Format : UTF-8
Codec ID : S_TEXT/UTF8
Codec ID/Info : UTF-8 Plain Text
Duration : 1 h 5 min
Bit rate : 57 b/s
Count of elements : 767
Stream size : 27.2 KiB (0%)
Title : Korean
Language : Korean
Default : No
Forced : No

Text #11
ID : 13
Format : UTF-8
Codec ID : S_TEXT/UTF8
Codec ID/Info : UTF-8 Plain Text
Duration : 1 h 5 min
Bit rate : 3 b/s
Count of elements : 40
Stream size : 1.72 KiB (0%)
Title : Nederlands
Language : Dutch
Default : No
Forced : No

Text #12
ID : 14
Format : UTF-8
Codec ID : S_TEXT/UTF8
Codec ID/Info : UTF-8 Plain Text
Duration : 1 h 5 min
Bit rate : 4 b/s
Count of elements : 47
Stream size : 2.10 KiB (0%)
Title : Norsk
Language : Norwegian
Default : No
Forced : No

Text #13
ID : 15
Format : UTF-8
Codec ID : S_TEXT/UTF8
Codec ID/Info : UTF-8 Plain Text
Duration : 1 h 5 min
Bit rate : 56 b/s
Count of elements : 738
Stream size : 26.7 KiB (0%)
Title : Polski
Language : Polish
Default : No
Forced : No

Text #14
ID : 16
Format : UTF-8
Codec ID : S_TEXT/UTF8
Codec ID/Info : UTF-8 Plain Text
Duration : 1 h 5 min
Bit rate : 3 b/s
Count of elements : 48
Stream size : 1.84 KiB (0%)
Title : Português
Language : Portuguese
Default : No
Forced : No

Text #15
ID : 17
Format : UTF-8
Codec ID : S_TEXT/UTF8
Codec ID/Info : UTF-8 Plain Text
Duration : 1 h 5 min
Bit rate : 58 b/s
Count of elements : 744
Stream size : 28.0 KiB (0%)
Title : Português (Brasil)
Language : Portuguese
Default : No
Forced : No

Text #16
ID : 18
Format : UTF-8
Codec ID : S_TEXT/UTF8
Codec ID/Info : UTF-8 Plain Text
Duration : 1 h 5 min
Bit rate : 4 b/s
Count of elements : 50
Stream size : 2.10 KiB (0%)
Title : Svenska
Language : Swedish
Default : No
Forced : No

Text #17
ID : 19
Format : UTF-8
Codec ID : S_TEXT/UTF8
Codec ID/Info : UTF-8 Plain Text
Duration : 1 h 5 min
Bit rate : 49 b/s
Count of elements : 767
Stream size : 23.7 KiB (0%)
Title : Chinese (Hong Kong)
Language : Chinese
Default : No
Forced : No

Text #18
ID : 20
Format : UTF-8
Codec ID : S_TEXT/UTF8
Codec ID/Info : UTF-8 Plain Text
Duration : 1 h 5 min
Bit rate : 49 b/s
Count of elements : 767
Stream size : 23.8 KiB (0%)
Title : Chinese (Simplified)
Language : Chinese
Default : No
Forced : No



Related Torrents

Trackers

Tracker name
http://tracker.openbittorrent.com:80/announce
udp://tracker.coppersurfer.tk:6969/announce
udp://tracker.openbittorrent.com:6969/announce
udp://tracker.opentrackr.org:1337
udp://tracker.leechers-paradise.org:6969/announce
udp://tracker.dler.org:6969/announce
udp://opentracker.i2p.rocks:6969/announce
udp://47.ip-51-68-199.eu:6969/announce
udp://tracker.opentrackr.org:1337/announce
udp://tracker.tallpenguin.org:15800/announce
udp://tracker.tallpenguin.org:15760
udp://tracker.tallpenguin.org:15720
udp://9.rarbg.to:2830/announce
udp://9.rarbg.to:2780
udp://tracker.zer0day.to:1337/announce
udp://tracker.leechers-paradise.org:6969/announce
udp://coppersurfer.tk:6969/announce
Torrent hash: AF8329E979B40D3BFBFAC253DA49789315573B12

0 Comment

Login to post comments