[ENTE] Sword Art Online (2012) S02 [AV1] [OPUS] [BD] [1080p]


0

0
seeders: 22 leechers: 6 updated: 1 week ago
Added 2 weeks ago in Anime - English-translated
Downloaded 0 time.
[ENTE] Sword Art Online (2012) S02 [AV1] [OPUS] [BD] [1080p]

Torrent Contents

[ENTE] Sword Art Online (2012) S02 [AV1] [OPUS] [BD] [1080p] (Size: 5 GB)
â–¼ show more 9 files
[ENTE] Sword Art Online S02E01 [AV1] [OPUS] [BD] [1080p] [48CDC2D2].mkv 237.4 MB
[ENTE] Sword Art Online S02E02 [AV1] [OPUS] [BD] [1080p] [677435C8].mkv 224.9 MB
[ENTE] Sword Art Online S02E03 [AV1] [OPUS] [BD] [1080p] [86DF08AC].mkv 176.7 MB
[ENTE] Sword Art Online S02E04 [AV1] [OPUS] [BD] [1080p] [0F2814B7].mkv 241.5 MB
[ENTE] Sword Art Online S02E05 [AV1] [OPUS] [BD] [1080p] [06407642].mkv 207.6 MB
[ENTE] Sword Art Online S02E06 [AV1] [OPUS] [BD] [1080p] [AC387D96].mkv 211.3 MB
[ENTE] Sword Art Online S02E07 [AV1] [OPUS] [BD] [1080p] [8E7E77FA].mkv 170.6 MB
[ENTE] Sword Art Online S02E08 [AV1] [OPUS] [BD] [1080p] [57B709D9].mkv 208.9 MB
[ENTE] Sword Art Online S02E09 [AV1] [OPUS] [BD] [1080p] [A650231F].mkv 190 MB
[ENTE] Sword Art Online S02E10 [AV1] [OPUS] [BD] [1080p] [B37103DC].mkv 212.9 MB
[ENTE] Sword Art Online S02E11 [AV1] [OPUS] [BD] [1080p] [637782C6].mkv 152.7 MB
[ENTE] Sword Art Online S02E12 [AV1] [OPUS] [BD] [1080p] [F0166E42].mkv 210.9 MB
[ENTE] Sword Art Online S02E13 [AV1] [OPUS] [BD] [1080p] [7401177D].mkv 204.5 MB
[ENTE] Sword Art Online S02E14 [AV1] [OPUS] [BD] [1080p] [23A62C9D].mkv 153.2 MB
[ENTE] Sword Art Online S02E15 [AV1] [OPUS] [BD] [1080p] [130F9383].mkv 231.5 MB
[ENTE] Sword Art Online S02E16 [AV1] [OPUS] [BD] [1080p] [B5625D8F].mkv 286.3 MB
[ENTE] Sword Art Online S02E17 [AV1] [OPUS] [BD] [1080p] [6D33B7B4].mkv 314.8 MB
[ENTE] Sword Art Online S02E18 [AV1] [OPUS] [BD] [1080p] [A5FFA207].mkv 217.3 MB
[ENTE] Sword Art Online S02E19 [AV1] [OPUS] [BD] [1080p] [8AC26B95].mkv 251.9 MB
[ENTE] Sword Art Online S02E20 [AV1] [OPUS] [BD] [1080p] [89501A37].mkv 206.7 MB
[ENTE] Sword Art Online S02E21 [AV1] [OPUS] [BD] [1080p] [81063758].mkv 276.4 MB
[ENTE] Sword Art Online S02E22 [AV1] [OPUS] [BD] [1080p] [24DBCBCF].mkv 174.2 MB
[ENTE] Sword Art Online S02E23 [AV1] [OPUS] [BD] [1080p] [B5D1B3C5].mkv 189 MB
[ENTE] Sword Art Online S02E24 [AV1] [OPUS] [BD] [1080p] [7844727A].mkv 187.1 MB

Description

AV1 encode of Moozzi2's SAO Season 2. Has JP commentary.

Added ENG subtitles (freeka). Cleaned and verified attachments.


General
Unique ID : 156904857367177805583412192240573676154 (0x760AC6BD0F57930AA3DA4EDD196CFA7A)
Complete name : [ENTE] Sword Art Online S02E01 [AV1] [OPUS] [BD] [1080p] [48CDC2D2].mkv
Format : Matroska
Format version : Version 4
File size : 237 MiB
Duration : 23 min 41 s
Overall bit rate : 1 401 kb/s
Encoded date : UTC 2023-01-04 23:31:35
Writing application : mkvmerge v60.0.0 ('Are We Copies?') 64-bit
Writing library : libebml v1.4.2 + libmatroska v1.6.3 / Lavf59.27.100
Attachments : Advert-Bold.otf / AGaramondPro-Regular.otf / akbar.ttf / AMIRA-SEMIBOLD.otf / AYearWithoutRain-Regular.ttf / Bell Gothic Bold.ttf / Bolide-Regular.ttf / candara.ttf / chinrg.ttf / clannad.ttf / Daniel.ttf / DroidSans.ttf / DroidSans-Bold.ttf / DroidSerif-Bold.ttf / erasdus0.ttf / JohnsHand-Regular.ttf / KozGoPr6N-Bold.otf / KozGoPr6n-L.ttf / KozGoPro-Heavy.otf / KozukaMinchoProStrp-M.otf / KozukaMinchoProStrp-Regular.otf / Lato-Bold.ttf / LeviReBrushed.ttf / LinLibertine_R.ttf / mvboli.ttf / nyala.ttf / OLDSH.ttf / OpenSans-Light.ttf / QuaySansMdITCTT.ttf / RolandBecker Bold.ttf / sword_art_online_font_by_darkblackswords-d5nssbp.otf / times.ttf / timesbd.ttf / Vegur-Light.otf

Video
ID : 1
Format : AV1
Format/Info : AOMedia Video 1
Format profile : [email protected]
Codec ID : V_AV1
Duration : 23 min 41 s
Bit rate : 1 003 kb/s
Width : 1 920 pixels
Height : 1 080 pixels
Display aspect ratio : 16:9
Frame rate mode : Constant
Frame rate : 23.976 (24000/1001) FPS
Color space : YUV
Chroma subsampling : 4:2:0
Bit depth : 10 bits
Bits/(Pixel*Frame) : 0.020
Stream size : 170 MiB (72%)
Default : No
Forced : No
Color range : Limited
Color primaries : BT.709
Transfer characteristics : BT.709
Matrix coefficients : BT.709

Audio #1
ID : 2
Format : Opus
Codec ID : A_OPUS
Duration : 23 min 41 s
Bit rate : 164 kb/s
Channel(s) : 2 channels
Channel layout : L R
Sampling rate : 48.0 kHz
Frame rate : 50.000 FPS (960 SPF)
Bit depth : 32 bits
Compression mode : Lossy
Stream size : 27.8 MiB (12%)
Writing library : Lavc59.37.100 libopus
Language : Japanese
Default : Yes
Forced : No

Audio #2
ID : 3
Format : Opus
Codec ID : A_OPUS
Duration : 23 min 41 s
Bit rate : 140 kb/s
Channel(s) : 2 channels
Channel layout : L R
Sampling rate : 48.0 kHz
Frame rate : 50.000 FPS (960 SPF)
Bit depth : 32 bits
Compression mode : Lossy
Stream size : 23.8 MiB (10%)
Writing library : Lavc59.37.100 libopus
Language : Japanese
Default : No
Forced : No

Text
ID : 4
Format : ASS
Codec ID : S_TEXT/ASS
Codec ID/Info : Advanced Sub Station Alpha
Duration : 23 min 24 s
Bit rate : 1 807 b/s
Count of elements : 2069
Compression mode : Lossless
Stream size : 310 KiB (0%)
Language : English
Default : Yes
Forced : No

Menu
00:00:00.000 : Intro
00:03:21.993 : Part A
00:08:27.965 : Part B
00:22:04.906 : ED
00:23:34.913 : Next Time

Related Torrents

Trackers

Tracker name
http://anidex.moe:6969/announce
udp://open.stealth.si:80/announce
udp://tracker.opentrackr.org:1337/announce
udp://tracker.torrent.eu.org:451/announce
udp://tracker.openbittorrent.com:6969/announce
http://tracker.openbittorrent.com:80/announce
udp://www.torrent.eu.org:451/announce
udp://tracker.opentrackr.org:1337/announce
http://tracker.openbittorrent.com:80/announce
udp://opentracker.i2p.rocks:6969/announce
udp://tracker.internetwarriors.net:1337/announce
udp://tracker.leechers-paradise.org:6969/announce
udp://coppersurfer.tk:6969/announce
udp://tracker.zer0day.to:1337/announce
Torrent hash: 2B15030B2377B4CA05EA5CACC7BB85FB75623B92

0 Comment

Login to post comments