Assault on a Queen (1966)[BRRip 1080p x264 by alE13 AC3/DTS][Lektor i Napisy Eng][Eng]


0

0
seeders: 0 leechers: 1
Added 6 years ago in Movies - Highres Movies
Downloaded 1 time.
1337x.to
Assault on a Queen (1966)[BRRip 1080p x264 by alE13 AC3/DTS][Lektor i Napisy Eng][Eng]
  • Release date: 15 Jun 1966
  • Release year: 1966
  • Runtime: 106 mintues
  • Country: United States
  • Keywords: gold robbery, beer, u boat, heist, german
Plot:
A group of adventurers refloat a WWII German submarine and prepare to use it to pull a very large heist; The Queen Mary which they plan to rob on the high seas.

Available in versions:
Other x264 720p 1080p

Torrent Contents Size: 7.8 GB

Assault on a Queen (1966)[BRRip 1080p x264 by alE13 AC3/DTS][Lektor i Napisy Eng][Eng].torrent
1.jpg 227.4 KB
Nostalgie11.jpg 185.8 KB
torrent downoloaded from immortaltorrent.txt 102.4 B
torrent downoloaded from auratorrent.txt 102.4 B
Torrent Downloaded From devil-torrents.txt 102.4 B
Torrent Downloaded From polskie-torrenty.txt 0 B
Torrent downloaded from demonoid.pw.txt 0 B
Torrent Downloaded From filetracker.pl 0 B
Torrent Downloaded From super-torrent.pl 0 B
Torrent Downloaded From 1337x.to.txt 0 B
Assault on a Queen (1966)-alE13.mkv 7.7 GB
sample.mkv 51 MB
cover.jpg 693.4 KB
poster.jpg 141.2 KB
txt.jpg 133.3 KB

Description

http://www.imdb.com/title/tt0060135/
http://www.filmweb.pl/film/Napad+na+kr%C3%B3low%C4%85-1966-92772


Plik zawiera Sample.


reżyseria: Jack Donohue
scenariusz: Rod Serling
gatunek: Kryminał,Przygodowy
produkcja: USA
premiera: 15-06-1966
muzyka: Duke Ellington
zdjęcia: William H. Daniels
czas: 1h 46min

opis:

A motley crew of treasure hunters plan to rob the cruise-liner RMS Queen Mary, using a recovered WW2 German submarine.

Łowcy skarbów planują porwać statek wycieczkowy RMS Queen Mary, używając do tego niemieckiej łodzi
podwodnej z drugiej wojny światowej.






obsada:

Frank Sinatra, Virna Lisi, Anthony Franciosa

dane techniczne:

Assault on a Queen (1966)-alE13.mkv
Format : Matroska
Format version : Version 4 / Version 2
File size : 7.70 GiB
Duration : 1 h 46 min
Overall bit rate : 10.3 Mb/s
Movie name : Assault on a Queen (1966)-alE13
Encoded date : UTC 2017-06-14 11:50:08
Writing application : mkvmerge v8.1.0 ('Psychedelic Postcard') 64bit
Writing library : libebml v1.3.1 + libmatroska v1.4.2
Cover : Yes
Attachments : cover.jpg

Video
ID : 1
Format : AVC
Format/Info : Advanced Video Codec
Format profile : [email protected]
Format settings, CABAC : Yes
Format settings, ReFrames : 2 frames
Codec ID : V_MPEG4/ISO/AVC
Duration : 1 h 46 min
Bit rate : 9 053 kb/s
Width : 1 920 pixels
Height : 816 pixels
Display aspect ratio : 2.35:1
Frame rate mode : Constant
Frame rate : 23.976 (23976/1000) FPS
Original frame rate : 23.976 (24000/1001) FPS
Color space : YUV
Chroma subsampling : 4:2:0
Bit depth : 8 bits
Scan type : Progressive
Bits/(Pixel*Frame) : 0.241
Stream size : 6.75 GiB (88%)
Title : Assault on a Queen (1966)-alE13
Writing library : x264 core 142
Default : Yes
Forced : No
Color range : Limited
Color primaries : BT.709
Transfer characteristics : BT.709
Matrix coefficients : BT.709

Audio #1
ID : 2
Format : AC-3
Format/Info : Audio Coding 3
Mode extension : CM (complete main)
Format settings, Endianness : Big
Codec ID : A_AC3
Duration : 1 h 46 min
Bit rate mode : Constant
Bit rate : 192 kb/s
Channel(s) : 2 channels
Channel positions : Front: L R
Sampling rate : 48.0 kHz
Frame rate : 31.250 FPS (1536 spf)
Compression mode : Lossy
Stream size : 147 MiB (2%)
Title : Assault on a Queen (1966)-alE13
Language : English
Default : No
Forced : No

Audio #2
ID : 3
Format : DTS
Format/Info : Digital Theater Systems
Format profile : MA / Core
Mode : 16
Format settings, Endianness : Big
Codec ID : A_DTS
Duration : 1 h 46 min
Bit rate mode : Variable / Constant
Bit rate : 827 kb/s / 768 kb/s
Channel(s) : 1 channel
Channel positions : Front: C
Sampling rate : 48.0 kHz
Frame rate : 93.750 FPS (512 spf)
Bit depth : 16 bits
Compression mode : Lossless / Lossy
Delay relative to video : 13 s 0 ms
Stream size : 631 MiB (8%)
Title : Assault on a Queen (1966)-alE13_DTS, 1 ch, 768 Kbps, Original
Language : English
Default : No
Forced : No

Audio #3
ID : 6
Format : AC-3
Format/Info : Audio Coding 3
Mode extension : CM (complete main)
Format settings, Endianness : Big
Codec ID : A_AC3
Duration : 1 h 46 min
Bit rate mode : Constant
Bit rate : 256 kb/s
Channel(s) : 2 channels
Channel positions : Front: L R
Sampling rate : 44.1 kHz
Frame rate : 28.711 FPS (1536 spf)
Compression mode : Lossy
Delay relative to video : 15 s 650 ms
Stream size : 194 MiB (2%)
Title : Assault on a Queen (1966)-alE13
Language : Polish
Default : Yes
Forced : No

Text #1
ID : 4
Format : UTF-8
Codec ID : S_TEXT/UTF8
Codec ID/Info : UTF-8 Plain Text
Duration : 1 h 42 min
Bit rate : 59 b/s
Count of elements : 1598
Stream size : 44.4 KiB (0%)
Title : Assault on a Queen (1966)-alE13
Language : English
Default : No
Forced : No

Text #2
ID : 5
Format : UTF-8
Codec ID : S_TEXT/UTF8
Codec ID/Info : UTF-8 Plain Text
Duration : 1 h 44 min
Bit rate : 59 b/s
Count of elements : 1222
Stream size : 45.5 KiB (0%)
Title : Assault on a Queen (1966)-alE13
Language : Portuguese
Default : No
Forced : No

Menu
00:00:00.000 : en:For Hire
00:10:19.702 : en:Change of Heart
00:28:23.493 : en:Raising the Sub
00:45:09.457 : en:The Sixth Musketeer
00:56:55.509 : en:Success
01:02:51.156 : en:Test Run
01:11:26.378 : en:The Mission
01:22:01.930 : en:The Heist

Related Torrents

Trackers

Tracker name
http://tracker.devil-torrents.pl/announce
http://tracker.torrentyorg.pl/announce
udp://tracker.opentrackr.org:1337/announce
udp://tracker.leechers-paradise.org:6969/announce
udp://tracker.ilibr.org:80/announce
udp://tracker.coppersurfer.tk:6969/announce
udp://p4p.arenabg.ch:1337/announce
udp://inferno.demonoid.pw:3391/announce
udp://tracker.zer0day.to:1337/announce
udp://tracker.leechers-paradise.org:6969/announce
udp://coppersurfer.tk:6969/announce
Torrent hash: CB045FEA1F9ECC905544E0E91D847E80489A5B32

0 Comment

Login to post comments