18+ What The Waters Left Behind 2018 UNCENSORED Movies HDRip x264 AAC ESubs with Sample ☻rDX☻


0

0
seeders: 0 leechers: 1 updated: 1 year ago
Added 5 years ago in Movies - Highres Movies
Downloaded 2 times.
18+ What The Waters Left Behind 2018 UNCENSORED Movies HDRip x264 AAC ESubs with Sample ☻rDX☻
  • Release date: 8 Mar 2018
  • Release year: 2018
  • Runtime: 98 mintues
  • Country: Argentina, New Zealand
  • Budget: $1,100,000
Plot:
The plot revolves around a group of young people that take a trip to the ruins in order to film a documentary about Epecuen. Ignoring the warnings, and after a brief tour, they get stranded in the abandoned village. Contrary to what they thought, they begin to realize that they are really not alone.

Available in versions:
Other WEB-DL x264 720p 1080p

Torrent Contents

18+ What The Waters Left Behind 2018 UNCENSORED Movies HDRip x264 AAC ESubs with Sample ☻rDX☻ (Size: 706.8 MB)
18+ What The Waters Left Behind 2018 UNCENSORED Movies HDRip x264 AAC ESubs ☻rDX☻.mkv 9.7 MB
Sample ~ 18+ What The Waters Left Behind 2018 UNCENSORED Movies HDRip x264 AAC ESubs ☻rDX☻.mkv 697.1 MB

Description

18+ What The Waters Left Behind 2018 UNCENSORED Movies HDRip x264 AAC ESubs with Sample ☻rDX☻
===============================================================================================

SCREEN SHOTS:



or

https://iphonehosting.eu/2018/11/stockmarket/1.html

File size : 9.67 MiB
Duration : 1 min 18 s
Overall bit rate mode : Constant
Overall bit rate : 1 039 kb/s
Movie name : 18+ What The Waters Left Behind 2018 UNCENSORED Movies HDRip x264 AAC ESubs ☻rDX☻

Video
ID : 2
Format : AVC
Format/Info : Advanced Video Codec
Format profile : [email protected]
Format settings, CABAC : Yes
Format settings, ReFrames : 2 frames
Format settings, GOP : M=1, N=12
Codec ID : V_MPEG4/ISO/AVC
Duration : 1 min 18 s
Bit rate mode : Constant
Bit rate : 979 kb/s
Width : 720 pixels
Height : 304 pixels
Display aspect ratio : 2.35:1
Frame rate mode : Constant
Frame rate : 23.976 FPS
Color space : YUV
Chroma subsampling : 4:2:0
Bit depth : 8 bits
Scan type : Progressive
Bits/(Pixel*Frame) : 0.187
Stream size : 8.88 MiB (92%)
Title : ☻rDX☻
Default : Yes
Forced : No

Audio
ID : 1
Format : MPEG Audio
Format version : Version 1
Format profile : Layer 3
Mode : Joint stereo
Mode extension : MS Stereo
Codec ID : A_MPEG/L3
Codec ID/Hint : MP3
Duration : 1 min 18 s
Bit rate mode : Constant
Bit rate : 64.0 kb/s
Channel(s) : 2 channels
Sampling rate : 44.1 kHz
Compression mode : Lossy
Delay relative to video : 15 ms
Stream size : 610 KiB (6%)
Title : ☻rDX☻
Default : Yes
Forced : No

https://www.imdb.com/title/tt6332764

Related Torrents

Trackers

Tracker name
udp://tracker.coppersurfer.tk:6969/announce
udp://tracker.leechers-paradise.org:6969/announce
udp://tracker.pirateparty.gr:6969/announce
udp://eddie4.nl:6969/announce
udp://tracker.zer0day.to:1337/announce
udp://9.rarbg.me:2710/announce
udp://9.rarbg.to:2710/announce
udp://public.popcorn-tracker.org:6969/announce
udp://p4p.arenabg.ch:1337/announce
udp://tracker.vanitycore.co:6969/announce
udp://ipv4.tracker.harry.lu:80/announce
udp://tracker.opentrackr.org:1337/announce
udp://p4p.arenabg.com:1337/announce
udp://shadowshq.yi.org:6969/announce
udp://tracker.zer0day.to:1337/announce
udp://tracker.leechers-paradise.org:6969/announce
udp://coppersurfer.tk:6969/announce
Torrent hash: 4B8A0E298FBF60776D2A6DE8FDB8D7E4B184E4DF

0 Comment

Login to post comments