18+ What The Waters Left Behind 2018 UNCENSORED Movies 720p HDRip x264 5 1 ESubs with Sample ☻rDX☻


0

0
seeders: 0 leechers: 1 updated: 1 year ago
Added 5 years ago in Movies - Highres Movies
Downloaded 5 times.
18+ What The Waters Left Behind 2018 UNCENSORED Movies 720p HDRip x264 5 1 ESubs with Sample ☻rDX☻
  • Release date: 8 Mar 2018
  • Release year: 2018
  • Runtime: 98 mintues
  • Country: Argentina, New Zealand
  • Budget: $1,100,000
Plot:
The plot revolves around a group of young people that take a trip to the ruins in order to film a documentary about Epecuen. Ignoring the warnings, and after a brief tour, they get stranded in the abandoned village. Contrary to what they thought, they begin to realize that they are really not alone.

Available in versions:
Other WEB-DL x264 720p 1080p

Torrent Contents

18+ What The Waters Left Behind 2018 UNCENSORED Movies 720p HDRip x264 5 1 ESubs with Sample ☻rDX☻ (Size: 1.2 GB)
Sample ~ 18+ What The Waters Left Behind 2018 UNCENSORED Movies 720p HDRip x264 5.1 ESubs ☻rDX☻.mkv 13.5 MB
18+ What The Waters Left Behind 2018 UNCENSORED Movies 720p HDRip x264 5.1 ESubs ☻rDX☻.mkv 1.2 GB

Description

18+ What The Waters Left Behind 2018 UNCENSORED Movies 720p HDRip x264 5.1 ESubs with Sample ☻rDX☻
===============================================================================================

SCREEN SHOTS:



or

https://iphonehosting.eu/2018/11/rpm/1.html

File size : 1.18 GiB
Duration : 1 h 33 min
Overall bit rate : 1 813 kb/s
Movie name : 18+ What The Waters Left Behind 2018 UNCENSORED Movies 720p HDRip x264 5.1 ESubs ☻rDX☻

Video
ID : 2
Format : AVC
Format/Info : Advanced Video Codec
Format profile : [email protected]
Format settings, CABAC : Yes
Format settings, ReFrames : 4 frames
Codec ID : V_MPEG4/ISO/AVC
Duration : 1 h 33 min
Bit rate : 1 450 kb/s
Width : 1 280 pixels
Height : 532 pixels
Display aspect ratio : 2.40:1
Frame rate mode : Constant
Frame rate : 25.000 FPS
Color space : YUV
Chroma subsampling : 4:2:0
Bit depth : 8 bits
Scan type : Progressive
Bits/(Pixel*Frame) : 0.085
Stream size : 932 MiB (77%)
Title : ☻rDX☻
Writing library : x264

Audio
ID : 1
Format : AC-3
Format/Info : Audio Coding 3
Mode extension : CM (complete main)
Format settings, Endianness : Big
Codec ID : A_AC3
Duration : 1 h 33 min
Bit rate mode : Constant
Bit rate : 384 kb/s
Channel(s) : 6 channels
Channel positions : Front: L C R, Side: L R, LFE
Sampling rate : 48.0 kHz
Frame rate : 31.250 FPS (1536 spf)
Bit depth : 16 bits
Compression mode : Lossy
Stream size : 257 MiB (21%)
Title : ☻rDX☻
Default : Yes
Forced : No

Text
ID : 3
Format : ASS
Codec ID : S_TEXT/ASS
Codec ID/Info : Advanced Sub Station Alpha
Compression mode : Lossless
Title : ☻rDX☻
Language : English
Default : Yes
Forced : No

https://www.imdb.com/title/tt6332764

Related Torrents

Trackers

Tracker name
udp://tracker.coppersurfer.tk:6969/announce
udp://tracker.leechers-paradise.org:6969/announce
udp://tracker.pirateparty.gr:6969/announce
udp://eddie4.nl:6969/announce
udp://tracker.zer0day.to:1337/announce
udp://9.rarbg.me:2710/announce
udp://9.rarbg.to:2710/announce
udp://public.popcorn-tracker.org:6969/announce
udp://p4p.arenabg.ch:1337/announce
udp://tracker.vanitycore.co:6969/announce
udp://ipv4.tracker.harry.lu:80/announce
udp://tracker.opentrackr.org:1337/announce
udp://p4p.arenabg.com:1337/announce
udp://shadowshq.yi.org:6969/announce
udp://tracker.zer0day.to:1337/announce
udp://tracker.leechers-paradise.org:6969/announce
udp://coppersurfer.tk:6969/announce
Torrent hash: 910759EF08353145B2E44B4D87F2F9EB8AF1728B

0 Comment

Login to post comments